Nicolay Rimsky-Korsakov – Life and Work (4 CD)

[WV, LOG, BOOKLET]

Year: 2005
Label: Membran / 222597-354
Tracklist:

CD 1
Antar op. 9 – Sinfonische Suite / Symphonic Suite
1. I. Largo. Allegro giocoso. Adagio. Largo
2. II. Allegro. Molto allegro. Meno mosso, allargando
3. III. Allegro risoluto alla marcia
4. IV. Allegretto vovace. Andante amoroso. Animato assai
L’Orchestre de la Suisse Romande – Ernest Ansermet, Dirigent / conductor – aufg. / recorded in: 1954

5. Szazka op. 29
Philharmonia Orchestra – Constant Lambert, Dirigent / conductor – aufg. / recorded in: 1946
Der goldene Hahn (Auszüge) / The Golden Cockerel (Highlights)

6. Introduktion / Introduction
7. Hochzeitsmarsch / Wedding March
L’Orchestre de la Suisse Romande – Ernest Ansermet, Dirigent / conductor – aufg. / recorded in: 1948

CD 2
Scheherazade op. 35 – Sinfonische Suite nach ‘Tausendundeiner Nacht‘ / Symphonic Suite based on ‚Arabian Nights‘
1. I. Das Meer und Sindbads Schiff / The Sea And Sinbad’s Ship
2. II. Die Geschichte vom Prinzen Kalender / The Story Of Prince Calendar
3. III. Der junge Prinz und die Prinzessin / The Young Prince And Princess
4. IV. Fest in Bagdad – Das Meer – Schiffbruch – Schluss / Festival At Baghdad – The Sea – Shipwreck – Finale

Capriccio Espagnol op. 34
5. I. Alborada
6. II. Variazioni Alborada
7. III. Scena e canto gitano
8. IV. Fandango asturiano
The Royal Philharmonic Orchestra – Barry Wordsworth, Dirigent / conductor – aufg. / recorded in: 1993

CD 3
1. Hummelflug (Zar Saltan) / Flight Of The Bumble Bee (Czar Saltan)
Isaac Stern, Violine / violin – Orchester unbek. / orchestra unknown) – Franz Waxman, Dirigent / conductor – aufg. / recorded in: 1946

Trio C-Dur für Violine, Cello und Klavier / Trio for Violin, Cello and Piano in C major
2. I. Allegro
3. II. Scherzo
4. III. Adagio
5. IV. Finale: Adagio. Allegro
David Oistrakh, Violine / violin – Sviatoslav Knushevitzky, Cello / cello – Lev Oborin, Klavier / piano – aufg. / recorded in: 1952

6. Sinfonisches Zwischenspiel (Die Legende von der unsichtbaren Stadt Kitezh) (Transkr. Kouznetsov) / Symphonic Interlude (The Legend Of The Invisible City Of Kitezh) (transcr. Kouznetsov)
Premier-Trio Moscow: Victor Abramian, Violine / violin – Evgheni Krushevsky, Klavier / piano – Sergey Sudzilovsky, Cello / cello – aufg. / recoded in: 1998

CD 4
Noch’pered Rozhdestyom – Weihnachtsabend – Oper in 4 Akten (nach Gogol) (Auszüge) / Christmas Eve – Opera In Four Acts (based on Gogol) (Highlights)
1. Vorspiel / prelude
2. Solokha und der Teufel / Solokha And The Devil
3. Panas und Chub / Panas And Chub
4. Vakula und Chub / Vakula And Chub
5. Arie der Oksana / Oksana’s Aria
6. Oksana und Vakula / Oksana And Vakula
7. Koliadka der jungen Mädchen / Koliadka Of Young Girls
8. Polonaise und Chor / Polonaise And Chorus
9. Vorspiel und Duett der Landfrauen / Prelude And Duo Of Two Women
10. Arie der Oksana / Oksana’s Aria
11. Vakula und Chub / Vakula And Chub
12. Oksana, Vakula und Chub / Oksana, Vakula And Chub
13. Chor, Oksana, Vakula und Chub / Chorus, Oksana, Vakula And Chub
14. Epilog / epilogue: Ehrung für Gogol / Homage To Gogol
Chub, Sergei Krasovsky (Bass / bass) – Oksana, Natalya Shpiller (Sopran / soprano) – Solokha, Natalya Kulagina (Alt / contralto) – Vakula, Dmitri Tarkhov (Tenor / tenor) – Panas, Vsevolod Tyntyunik (Bass / bass) – Der Teufel / The Devil, Piotr Pontryagin (Tenor / tenor) – Chor und Orchester des Radiosinfonieorchesters Moskau / Chorus and Orchestra of the Moscow Radio Symphony Orchestra – Nikolay Golovanov, Dirigent / conductor – aufg. / recorded in: 1947

LOG

Exact Audio Copy V0.99 prebeta 4 from 23. January 2008

EAC extraction logfile from

Nikolay Rimsky-Korsakov / Life and Work (CD1)

Used drive  : TSSTcorpCD/DVDW SH-S182M   Adapter: 4  ID: 0

Read mode               : Secure
Utilize accurate stream : Yes
Defeat audio cache      : Yes
Make use of C2 pointers : No

Read offset correction                      : 6
Overread into Lead-In and Lead-Out          : No
Fill up missing offset samples with silence : Yes
Delete leading and trailing silent blocks   : No
Null samples used in CRC calculations       : Yes
Used interface                              : Installed external ASPI interface

Used output format : Internal WAV Routines
Sample format      : 44.100 Hz; 16 Bit; Stereo

TOC of the extracted CD

Track |   Start  |  Length  | Start sector | End sector
———————————————————
1  |  0:00.00 | 11:44.16 |         0    |    52815
2  | 11:44.16 |  5:11.52 |     52816    |    76192
3  | 16:55.68 |  5:41.27 |     76193    |   101794
4  | 22:37.20 |  8:23.50 |    101795    |   139569
5  | 31:00.70 | 17:33.49 |    139570    |   218593
6  | 48:34.44 |  4:14.16 |    218594    |   237659
7  | 52:48.60 |  3:43.13 |    237660    |   254397

Range status and errors

Selected range

Filename

Peak level 99.9 %
Range quality 100.0 %
Test CRC F1A9DFF5
Copy CRC F1A9DFF5
Copy OK

No errors occurred

AccurateRip summary

Track  1  not present in database
Track  2  not present in database
Track  3  not present in database
Track  4  not present in database
Track  5  not present in database
Track  6  not present in database
Track  7  not present in database

None of the tracks are present in the AccurateRip database

End of status report

——————————————————–

Exact Audio Copy V0.99 prebeta 4 from 23. January 2008

EAC extraction logfile from 18. June 2008, 0:40

Nikolay Rimsky-Korsakov / Life and Work (CD2)

Used drive  : TSSTcorpCD/DVDW SH-S182M   Adapter: 4  ID: 0

Read mode               : Secure
Utilize accurate stream : Yes
Defeat audio cache      : Yes
Make use of C2 pointers : No

Read offset correction                      : 6
Overread into Lead-In and Lead-Out          : No
Fill up missing offset samples with silence : Yes
Delete leading and trailing silent blocks   : No
Null samples used in CRC calculations       : Yes
Used interface                              : Installed external ASPI interface

Used output format : Internal WAV Routines
Sample format      : 44.100 Hz; 16 Bit; Stereo

TOC of the extracted CD

Track |   Start  |  Length  | Start sector | End sector
———————————————————
1  |  0:00.00 | 10:39.00 |         0    |    47924
2  | 10:39.00 | 12:11.40 |     47925    |   102789
3  | 22:50.40 | 10:34.55 |    102790    |   150394
4  | 33:25.20 | 13:01.20 |    150395    |   208989
5  | 46:26.40 |  1:12.00 |    208990    |   214389
6  | 47:38.40 |  6:23.28 |    214390    |   243142
7  | 54:01.68 |  2:48.11 |    243143    |   255753
8  | 56:50.04 |  5:58.01 |    255754    |   282604

Range status and errors

Selected range

Filename F:\Release\Nikolay Rimsky-Korsakov\Nikolay Rimsky-Korsakov – Life and Work (CD2).wav

Peak level 99.7 %
Range quality 100.0 %
Test CRC 944CA144
Copy CRC 944CA144
Copy OK

No errors occurred

AccurateRip summary

Track  1  not present in database
Track  2  not present in database
Track  3  not present in database
Track  4  not present in database
Track  5  not present in database
Track  6  not present in database
Track  7  not present in database
Track  8  not present in database

None of the tracks are present in the AccurateRip database

End of status report

————————————————————-

Exact Audio Copy V0.99 prebeta 4 from 23. January 2008

EAC extraction logfile from 18. June 2008, 23:48

Nikolay Rimsky-Korsakov / Life and Work (CD3)

Used drive  : TSSTcorpCD/DVDW SH-S182M   Adapter: 4  ID: 0

Read mode               : Secure
Utilize accurate stream : Yes
Defeat audio cache      : Yes
Make use of C2 pointers : No

Read offset correction                      : 6
Overread into Lead-In and Lead-Out          : No
Fill up missing offset samples with silence : Yes
Delete leading and trailing silent blocks   : No
Null samples used in CRC calculations       : Yes
Used interface                              : Installed external ASPI interface

Used output format : Internal WAV Routines
Sample format      : 44.100 Hz; 16 Bit; Stereo

TOC of the extracted CD

Track |   Start  |  Length  | Start sector | End sector
———————————————————
1  |  0:00.00 |  1:15.30 |         0    |     5654
2  |  1:15.30 | 10:35.16 |      5655    |    53295
3  | 11:50.46 |  4:31.44 |     53296    |    73664
4  | 16:22.15 |  9:18.35 |     73665    |   115549
5  | 25:40.50 | 12:56.02 |    115550    |   173751
6  | 38:36.52 |  3:25.13 |    173752    |   189139

Range status and errors

Selected range

Filename F:\Release\Nikolay Rimsky-Korsakov\Nikolay Rimsky-Korsakov – Life and Work (CD3).wav

Peak level 100.0 %
Range quality 100.0 %
Test CRC F216EDA6
Copy CRC F216EDA6
Copy OK

No errors occurred

AccurateRip summary

Track  1  not present in database
Track  2  not present in database
Track  3  not present in database
Track  4  not present in database
Track  5  not present in database
Track  6  not present in database

None of the tracks are present in the AccurateRip database

End of status report

———————————————————————-

Exact Audio Copy V0.99 prebeta 4 from 23. January 2008

EAC extraction logfile from 23. June 2008, 1:22

Nikolay Rimsky-Korsakov / Life and Work (CD4)

Used drive  : TSSTcorpCD/DVDW SH-S182M   Adapter: 4  ID: 0

Read mode               : Secure
Utilize accurate stream : Yes
Defeat audio cache      : Yes
Make use of C2 pointers : No

Read offset correction                      : 6
Overread into Lead-In and Lead-Out          : No
Fill up missing offset samples with silence : Yes
Delete leading and trailing silent blocks   : No
Null samples used in CRC calculations       : Yes
Used interface                              : Installed external ASPI interface

Used output format : Internal WAV Routines
Sample format      : 44.100 Hz; 16 Bit; Stereo

TOC of the extracted CD

Track |   Start  |  Length  | Start sector | End sector
———————————————————
1  |  0:00.00 |  3:30.60 |         0    |    15809
2  |  3:30.60 |  5:24.39 |     15810    |    40148
3  |  8:55.24 |  4:18.57 |     40149    |    59555
4  | 13:14.06 |  8:40.18 |     59556    |    98573
5  | 21:54.24 |  7:11.40 |     98574    |   130938
6  | 29:05.64 |  4:58.27 |    130939    |   153315
7  | 34:04.16 |  5:49.64 |    153316    |   179554
8  | 39:54.05 |  4:43.29 |    179555    |   200808
9  | 44:37.34 |  3:54.48 |    200809    |   218406
10  | 48:32.07 |  6:35.39 |    218407    |   248070
11  | 55:07.46 |  2:13.40 |    248071    |   258085
12  | 57:21.11 |  1:38.43 |    258086    |   265478
13  | 58:59.54 |  0:51.18 |    265479    |   269321
14  | 59:50.72 |  1:37.53 |    269322    |   276649

Range status and errors

Selected range

Filename F:\Release\Nikolay Rimsky-Korsakov\Nikolay Rimsky-Korsakov – Life and Work (CD4).wav

Peak level 99.7 %
Range quality 100.0 %
Test CRC 2FCAB606
Copy CRC 2FCAB606
Copy OK

No errors occurred

AccurateRip summary

Track  1  not present in database
Track  2  not present in database
Track  3  not present in database
Track  4  not present in database
Track  5  not present in database
Track  6  not present in database
Track  7  not present in database
Track  8  not present in database
Track  9  not present in database
Track 10  not present in database
Track 11  not present in database
Track 12  not present in database
Track 13  not present in database
Track 14  not present in database

None of the tracks are present in the AccurateRip database

End of status report

LINKS

File name: Nikolay Rimsky-Korsakov – Life and Work (Booklet).pdf
File size:341.83 MB

File name: Nikolay Rimsky-Korsakov – Life and Work (CD1).wv
File size:249.62 MB

File name: Nikolay Rimsky-Korsakov – Life and Work (CD2).wv
File size:281.42 MB

File name: Nikolay Rimsky-Korsakov – Life and Work (CD3).wv
File size:157.05 MB

File name: Nikolay Rimsky-Korsakov – Life and Work (CD4).wv
File size:248.12 MB

OR

NZB: Download Nikolay Rimsky-Korsakov – Life And Work.nzb

Advertisements
    • Rómulo M. Soto Díaz
    • July 5th, 2010

    one question…… is wv file a compress file or audio file? I mean, can I extract separate tracks or not?

    sorry my grammar
    regards from Lima, Perú

  1. wv is audio file, you can open it with foobar2000.

    • Rómulo M. Soto Díaz
    • July 6th, 2010

    thanks a lot for answere….. so, i can export in individual tracks from foobar?….. I do it when I download a file with .cue file

    thanks a lot
    sorry my grammar
    regards from Lima, Perú

  1. No trackbacks yet.

Leave a Reply

Fill in your details below or click an icon to log in:

WordPress.com Logo

You are commenting using your WordPress.com account. Log Out / Change )

Twitter picture

You are commenting using your Twitter account. Log Out / Change )

Facebook photo

You are commenting using your Facebook account. Log Out / Change )

Google+ photo

You are commenting using your Google+ account. Log Out / Change )

Connecting to %s

%d bloggers like this: